<?xml version="1.0" standalone="no"?>
<!DOCTYPE svg PUBLIC "-//W3C//DTD SVG 1.1//EN" "http://www.w3.org/Graphics/SVG/1.1/DTD/svg11.dtd" >
<svg xmlns="http://www.w3.org/2000/svg">
<metadata>Generated by IcoMoon</metadata>
<defs>
<font id="icomoon" horiz-adv-x="1024">
<font-face units-per-em="1024" ascent="960" descent="-64" />
<missing-glyph horiz-adv-x="1024" />
<glyph unicode="&#x20;" horiz-adv-x="512" d="" />
<glyph unicode="&#xe900;" glyph-name="bing018_ls" d="M216.235 305.835h113.835v-159.232h-113.835v159.232zM534.699 385.365h113.835v-238.933h-113.835v238.933zM694.101 567.467h113.835v-421.035h-113.835v421.035zM375.467 476.501h113.835v-329.899h-113.835v329.899zM318.635 453.632c0-25.167-20.401-45.568-45.568-45.568s-45.568 20.401-45.568 45.568c0 25.167 20.401 45.568 45.568 45.568s45.568-20.401 45.568-45.568zM477.867 578.901c0-25.167-20.401-45.568-45.568-45.568s-45.568 20.401-45.568 45.568c0 25.167 20.401 45.568 45.568 45.568s45.568-20.401 45.568-45.568zM637.269 510.635c0-25.167-20.401-45.568-45.568-45.568s-45.568 20.401-45.568 45.568c0 25.167 20.401 45.568 45.568 45.568s45.568-20.401 45.568-45.568zM796.501 704c0-25.167-20.401-45.568-45.568-45.568s-45.568 20.401-45.568 45.568c0 25.167 20.401 45.568 45.568 45.568s45.568-20.401 45.568-45.568z" />
<glyph unicode="&#xe901;" glyph-name="nav_back2" horiz-adv-x="1771" d="M13.747 773.216c27.286 74.489 74.065 136.882 140.463 187.242 239.751-244.918 484.222-484.227 733.418-717.803 249.258 233.64 493.729 472.887 733.418 717.803 52.563-47.388 99.406-99.392 140.463-156.077-280.863-301.703-572.177-593.017-873.88-873.88-291.965 281.586-583.216 562.449-873.88 842.653z" />
<glyph unicode="&#xe902;" glyph-name="bing018_rs" horiz-adv-x="1365" d="M1108.575 155.401c-46.649 84.006-131.034 130.465-219.97 167.064l-16.308 15.739v26.169c47.611 61.956 78.249 139.193 83.752 223.288l0.065 1.233c1.087 9.379 1.707 20.246 1.707 31.259 0 82.305-34.634 156.522-90.123 208.87l-0.141 0.132c-5.341 4.55-8.707 11.283-8.707 18.801 0 4.604 1.262 8.914 3.46 12.601l-0.062-0.113c27.624 54.891 82.55 92.421 146.463 94.806l0.31 0.009c115.105 4.741 178.062-68.646 188.492-162.702 2.493-14.715 3.917-31.665 3.917-48.949 0-72.587-25.128-139.304-67.161-191.929l0.476 0.617c-5.31-10.43-15.739-15.55-21.049-26.169-2.455-6.188-3.879-13.357-3.879-20.859s1.424-14.671 4.015-21.253l-0.137 0.394c0-5.12 5.31-10.43 10.43-15.739 15.739-10.43 47.218-20.859 62.957-31.289 26.169-10.43 47.028-20.859 68.077-31.289 41.908-20.859 88.936-52.148 104.676-94.815 3.432-11.095 5.409-23.849 5.409-37.065 0-22.773-5.869-44.175-16.176-62.776l0.338 0.665c-36.599-47.028-130.844-56.889-214.661-67.887-2.446-1.232-5.331-1.954-8.384-1.954-8.111 0-15.032 5.092-17.742 12.253l-0.043 0.13zM256.759 160.521c-2.753-7.292-9.674-12.384-17.785-12.384-3.053 0-5.938 0.722-8.493 2.004l0.109-0.050c-83.816 10.43-178.062 20.859-214.661 67.887-9.966 17.98-15.831 39.427-15.831 62.243 0 13.236 1.974 26.011 5.643 38.046l-0.242-0.923c15.739 41.719 62.767 73.007 104.676 93.867 21.049 10.619 41.529 21.049 68.077 31.479 15.739 10.43 47.218 20.859 62.957 31.289 5.12 5.31 10.43 10.43 10.43 15.739 2.447 6.189 3.865 13.358 3.865 20.859s-1.419 14.67-4.002 21.255l0.137-0.395c-5.31 10.43-15.739 15.739-21.049 26.169-41.562 51.987-66.696 118.688-66.696 191.259 0 17.302 1.429 34.271 4.174 50.794l-0.246-1.793c10.43 94.815 73.387 167.064 188.492 161.944 64.223-2.394 119.149-39.924 146.326-93.836l0.447-0.979c2.135-3.574 3.397-7.884 3.397-12.488 0-7.518-3.366-14.25-8.672-18.772l-0.035-0.029c-55.932-52.546-90.771-126.985-90.771-209.561 0-10.815 0.598-21.49 1.762-31.994l-0.116 1.294c5.911-85.177 36.714-162.176 85.101-224.918l-0.716 0.966v-26.169l-15.739-15.55c-88.936-36.599-172.753-83.627-219.97-167.253zM318.578 50.916v36.788c1.201 11.721 4.995 22.352 10.798 31.594l-0.179-0.305c20.859 41.719 62.767 67.887 99.366 94.815h5.31c31.479 15.55 62.957 31.289 99.556 47.028l31.479 15.55c5.12 0 5.12 5.31 10.43 5.31 15.739 20.859 31.479 56.889 15.739 83.627l-26.169 25.79c-49.772 59.304-80.006 136.464-80.006 220.685 0 10.563 0.476 21.015 1.406 31.335l-0.097-1.33c10.619 104.486 78.696 177.683 193.801 177.683s183.372-73.197 199.111-177.683v-5.12c0.585-7.491 0.919-16.222 0.919-25.030 0-47.791-9.822-93.288-27.557-134.583l0.848 2.221c-14.327-33.711-32.083-62.783-53.413-88.814l0.506 0.637v-5.12c-5.12-10.43-15.55-15.739-20.859-20.859v-5.31c-2.607-9.373-4.106-20.137-4.106-31.251 0-21.066 5.384-40.874 14.851-58.124l-0.316 0.628c5.31-10.43 26.169-10.43 41.908-15.739h5.31c66.176-25.34 123.321-58.82 173.879-100.067l-1.127 0.891c17.547-14.407 30.476-33.852 36.606-56.114l0.182-0.775v-62.767c-15.739-52.148-89.126-67.887-157.203-83.437-59.852-10.057-128.811-15.804-199.111-15.804s-139.257 5.747-206.428 16.798l7.317-0.994c-56.889 10.43-120.415 25.979-151.704 62.578-10.43 5.31-15.739 15.739-21.049 36.599z" />
<glyph unicode="&#xe903;" glyph-name="in_g" d="M460.8 721.067h102.4v-307.2h-102.4v307.2zM460.8 311.467h102.4v-102.4h-102.4v102.4zM512 857.6c226.216 0 409.6-183.384 409.6-409.6s-183.384-409.6-409.6-409.6c-226.216 0-409.6 183.384-409.6 409.6v0c0 226.216 183.384 409.6 409.6 409.6v0zM512 960c-282.77 0-512-229.23-512-512s229.23-512 512-512c282.77 0 512 229.23 512 512v0c0 282.77-229.23 512-512 512v0z" />
<glyph unicode="&#xe904;" glyph-name="se_n" d="M512 917.333c259.206 0 469.333-210.128 469.333-469.333s-210.128-469.333-469.333-469.333c-259.206 0-469.333 210.128-469.333 469.333v0c0 259.206 210.128 469.333 469.333 469.333v0zM512 960c-282.77 0-512-229.23-512-512s229.23-512 512-512c282.77 0 512 229.23 512 512v0c0 282.77-229.23 512-512 512v0z" />
<glyph unicode="&#xe905;" glyph-name="pencil" d="M864 960c88.364 0 160-71.634 160-160 0-36.020-11.91-69.258-32-96l-64-64-224 224 64 64c26.742 20.090 59.978 32 96 32zM64 224l-64-288 288 64 592 592-224 224-592-592zM715.578 596.422l-448-448-55.156 55.156 448 448 55.156-55.156z" />
<glyph unicode="&#xe906;" glyph-name="bing018" d="M128 524.8h768v-153.6h-768v153.6z" />
<glyph unicode="&#xe907;" glyph-name="bing018_" d="M128 524.8h768v-153.6h-768v153.6zM588.8 832v-768h-153.6v768h153.6z" />
<glyph unicode="&#xe908;" glyph-name="bing018_sx" d="M914.133 355.627c-2.632 0.615-5.655 0.968-8.76 0.968-18.006 0-33.24-11.866-38.311-28.204l-0.076-0.284c-38.473-156.597-177.658-270.939-343.55-270.939-0.721 0-1.441 0.002-2.161 0.006l0.111-0.001c-193.675 4.881-348.814 163.043-348.814 357.44s155.139 352.559 348.362 357.431l0.452 0.009c0.321 0.001 0.701 0.002 1.081 0.002 94.3 0 179.859-37.422 242.639-98.224l-0.093 0.089h-165.12c-20.513-1.557-36.567-18.584-36.567-39.36s16.054-37.803 36.434-39.352l0.133-0.008h243.627c21.63 0.12 39.133 17.623 39.253 39.242v243.639c0 21.679-17.574 39.253-39.253 39.253s-39.253-17.574-39.253-39.253v0-137.387c-75.615 68.166-176.247 109.867-286.62 109.867-0.035 0-0.071 0-0.106 0h0.006c-2.871 0.068-6.253 0.107-9.644 0.107-240.826 0-436.053-195.228-436.053-436.053s195.228-436.053 436.053-436.053c3.391 0 6.774 0.039 10.147 0.116l-0.502-0.009c202.989 1.166 373.377 139.374 423.407 326.734l0.699 3.079c0.372 2.117 0.585 4.555 0.585 7.042 0 18.339-11.571 33.976-27.81 40.009l-0.295 0.096z" />
<glyph unicode="&#xe909;" glyph-name="my_sz" d="M821.419 412.843l-54.955 41.643c0.76 5.74 1.194 12.377 1.194 19.115s-0.434 13.375-1.275 19.884l0.081-0.769 54.955 41.643c9.011 6.963 14.758 17.772 14.758 29.924 0 7.164-1.997 13.861-5.465 19.566l0.094-0.167-61.44 103.253c-6.955 11.819-19.612 19.627-34.093 19.627-0.014 0-0.029 0-0.043 0h0.002c-0.233 0.005-0.508 0.008-0.784 0.008-4.497 0-8.804-0.817-12.779-2.31l0.251 0.083-65.365-25.6c-9.838 6.951-21.049 13.339-32.868 18.61l-1.266 0.504-9.728 66.731c-2.768 18.92-18.884 33.284-38.355 33.284-0.196 0-0.391-0.001-0.587-0.004h-123.703c-0.154 0.002-0.336 0.003-0.518 0.003-19.167 0-35.084-13.92-38.192-32.201l-0.032-0.229-9.387-67.243c-13.178-6.060-24.374-12.436-34.957-19.644l0.824 0.529-65.365 24.917c-3.873 1.411-8.344 2.227-13.005 2.227-0.288 0-0.575-0.003-0.862-0.009l0.043 0.001c-0.478 0.022-1.039 0.035-1.603 0.035-13.919 0-26.054-7.644-32.434-18.963l-0.097-0.186-61.952-104.107c-3.308-5.526-5.265-12.191-5.265-19.313 0-12.155 5.698-22.979 14.569-29.947l55.037-41.705c0-6.997-1.195-13.312-1.195-19.115-0.022-0.822-0.035-1.789-0.035-2.76 0-5.772 0.447-11.44 1.308-16.97l-0.079 0.615-54.955-41.643c-8.82-7-14.426-17.72-14.426-29.749 0-7.302 2.066-14.122 5.645-19.906l-0.094 0.162 61.44-102.4c6.955-11.819 19.612-19.627 34.093-19.627 0.014 0 0.029 0 0.043 0h-0.002c0.233-0.005 0.508-0.008 0.784-0.008 4.497 0 8.804 0.817 12.779 2.31l-0.251-0.083 65.365 25.6c9.838-6.951 21.049-13.339 32.868-18.61l1.266-0.504 9.899-66.731c2.919-18.756 18.955-32.941 38.305-32.941 0.154 0 0.307 0.001 0.46 0.003h123.71c0.205-0.004 0.446-0.006 0.688-0.006 19.168 0 35.085 13.921 38.192 32.204l0.032 0.229 9.728 67.243c13.154 6 24.352 12.378 34.912 19.619l-0.779-0.505 65.365-25.259c3.918-1.412 8.439-2.228 13.151-2.228 0.297 0 0.592 0.003 0.887 0.010l-0.044-0.001c0.508-0.025 1.103-0.039 1.701-0.039 13.893 0 25.999 7.65 32.336 18.967l0.096 0.187 61.952 104.789c2.845 5.162 4.519 11.315 4.519 17.859 0 12.277-5.893 23.178-15.004 30.029l-0.096 0.069zM622.933 473.6c0-61.267-49.667-110.933-110.933-110.933s-110.933 49.667-110.933 110.933c0 61.267 49.667 110.933 110.933 110.933v0c61.15-0.289 110.644-49.783 110.933-110.905v-0.028z" />
<glyph unicode="&#xe90a;" glyph-name="nav_back" horiz-adv-x="592" d="M487.195 945.982c43.064-15.775 79.135-42.819 108.249-81.205-141.593-138.606-279.944-279.941-414.98-424.007 135.073-144.102 273.388-285.437 414.98-424.007-27.396-30.388-57.461-57.469-90.232-81.205-174.422 162.374-342.838 330.79-505.212 505.212 162.792 168.792 325.166 337.172 487.159 505.212z" />
<glyph unicode="&#xe90b;" glyph-name="nav_back1" horiz-adv-x="592" d="M104.805-49.982c-43.064 15.775-79.135 42.819-108.249 81.205 141.593 138.606 279.944 279.941 414.98 424.007-135.073 144.102-273.388 285.437-414.98 424.007 27.396 30.388 57.461 57.469 90.232 81.205 174.422-162.374 342.838-330.79 505.212-505.212-162.792-168.792-325.166-337.172-487.159-505.212z" />
<glyph unicode="&#xe90c;" glyph-name="nav_close-3" d="M105.818 966.958c143.006-110.633 279.76-231.336 410.347-362.066 128.377 116.326 253.083 236.985 374.157 362.066 44.236-44.236 88.516-88.516 132.752-132.752-125.080-121.032-245.783-245.78-362.066-374.157 116.326-128.377 236.985-253.083 362.066-374.157-44.236-44.236-88.516-88.516-132.752-132.752-121.032 125.080-245.78 245.783-374.157 362.066-128.377-116.326-253.083-236.985-374.157-362.066-44.236 44.236-88.516 88.516-132.752 132.752 125.080 121.032 245.783 245.78 362.066 374.157-112.28 124.375-228.939 245.035-350.017 362.066-16.094 16.094-16.094 32.187 0 48.281 33.203 29.086 61.346 61.273 84.471 96.562z" />
<glyph unicode="&#xe90d;" glyph-name="Off" d="M974.452-64c-13.671 0.051-26.037 5.594-35.016 14.536l-924.901 924.901c-8.239 8.824-13.298 20.711-13.298 33.778 0 27.365 22.184 49.548 49.548 49.548 13.068 0 24.954-5.059 33.807-13.325l-0.029 0.027 924.903-924.903c9.034-8.927 14.629-21.317 14.629-35.014s-5.595-26.087-14.624-35.009l-0.005-0.005c-8.977-8.94-21.343-14.483-35.004-14.534h-0.010zM49.548-64c-13.671 0.051-26.037 5.594-35.016 14.536l0.002-0.002c-9.034 8.927-14.629 21.317-14.629 35.014s5.595 26.087 14.624 35.009l924.908 924.908c8.824 8.239 20.711 13.298 33.778 13.298 27.365 0 49.548-22.184 49.548-49.548 0-13.068-5.059-24.954-13.325-33.807l0.027 0.029-924.903-924.903c-8.977-8.94-21.343-14.483-35.004-14.534h-0.010z" />
<glyph unicode="&#xe90e;" glyph-name="uniE90E" d="M1024 448c0-282.77-229.23-512-512-512s-512 229.23-512 512c0 282.77 229.23 512 512 512s512-229.23 512-512z" />
<glyph unicode="&#xe90f;" glyph-name="uniE90F" d="M512 307.2c-10.59 0.034-20.166 4.349-27.092 11.305l-128.001 128.001c-5.906 6.719-9.509 15.586-9.509 25.296 0 21.208 17.192 38.4 38.4 38.4 9.709 0 18.577-3.604 25.339-9.546l-0.043 0.037 100.907-100.693 177.707 177.493c6.719 5.906 15.586 9.509 25.296 9.509 21.208 0 38.4-17.192 38.4-38.4 0-9.709-3.604-18.577-9.546-25.339l0.037 0.043-204.8-204.8c-6.928-6.957-16.503-11.273-27.087-11.307h-0.006z" />
<glyph unicode="&#xe910;" glyph-name="uniE910" d="M512 913.455c257.063 0 465.455-208.391 465.455-465.455s-208.391-465.455-465.455-465.455c-257.063 0-465.455 208.391-465.455 465.455v0c0 257.063 208.391 465.455 465.455 465.455v0zM512 960c-282.77 0-512-229.23-512-512s229.23-512 512-512c282.77 0 512 229.23 512 512v0c0 282.77-229.23 512-512 512v0zM279.273 471.273h465.455v-46.545h-465.455v46.545zM488.727 680.727h46.545v-465.455h-46.545v465.455z" />
<glyph unicode="&#xe911;" glyph-name="uniE911" d="M512 913.455c257.063 0 465.455-208.391 465.455-465.455s-208.391-465.455-465.455-465.455c-257.063 0-465.455 208.391-465.455 465.455v0c0 257.063 208.391 465.455 465.455 465.455v0zM512 960c-282.77 0-512-229.23-512-512s229.23-512 512-512c282.77 0 512 229.23 512 512v0c0 282.77-229.23 512-512 512v0zM279.273 471.273h465.455v-46.545h-465.455v46.545z" />
<glyph unicode="&#xe912;" glyph-name="icons8-link" d="M886.8 857.933c-1.386-0.045-2.698-0.164-3.987-0.356l0.187 0.023h-200.333c-0.144 0.002-0.313 0.003-0.483 0.003-18.853 0-34.137-15.284-34.137-34.137s15.284-34.137 34.137-34.137c0.17 0 0.339 0.001 0.508 0.004h122.374l-351.333-351.333c-6.473-6.222-10.495-14.954-10.495-24.625 0-18.853 15.284-34.137 34.137-34.137 9.671 0 18.403 4.022 24.614 10.483l351.344 351.344v-122.4c-0.002-0.144-0.003-0.313-0.003-0.483 0-18.853 15.284-34.137 34.137-34.137s34.137 15.284 34.137 34.137c0 0.17-0.001 0.339-0.004 0.508v-0.026 200.467c0.205 1.405 0.322 3.028 0.322 4.677 0 18.853-15.284 34.137-34.137 34.137-0.346 0-0.692-0.005-1.036-0.015l0.050 0.001zM204.8 721.067c-37.31 0-68.267-30.957-68.267-68.267v-512c0-37.31 30.957-68.267 68.267-68.267h512c37.31 0 68.267 30.957 68.267 68.267v429.333l-68.267-68.267v-361.067h-512v512h361.067l68.267 68.267h-429.333z" />
<glyph unicode="&#xe913;" d="M1024 448c0-282.77-229.23-512-512-512s-512 229.23-512 512c0 282.77 229.23 512 512 512s512-229.23 512-512z" />
<glyph unicode="&#xe914;" d="M443.733 789.333h136.533v-443.733h-136.533v443.733z" />
<glyph unicode="&#xe915;" d="M580.267 174.933c0-37.703-30.564-68.267-68.267-68.267s-68.267 30.564-68.267 68.267c0 37.703 30.564 68.267 68.267 68.267s68.267-30.564 68.267-68.267z" />
<glyph unicode="&#xe916;" glyph-name="dl_em" d="M742.4 678.4h-460.8c-42.376-0.097-76.703-34.424-76.8-76.791v-307.209c0.097-42.376 34.424-76.703 76.791-76.8h460.809c42.376 0.097 76.703 34.424 76.8 76.791v307.209c-0.097 42.376-34.424 76.703-76.791 76.8h-0.009zM714.752 627.2l-202.752-202.752-202.752 202.752zM768 294.4c0-14.138-11.462-25.6-25.6-25.6v0h-460.8c-14.138 0-25.6 11.462-25.6 25.6v0 307.2c-0.085 0.87-0.133 1.88-0.133 2.901s0.048 2.032 0.143 3.029l-0.010-0.127 237.227-237.227c4.632-4.626 11.027-7.487 18.091-7.487s13.459 2.861 18.091 7.487v0l238.592 237.227c0.085-0.87 0.133-1.88 0.133-2.901s-0.048-2.032-0.143-3.029l0.010 0.127z" />
<glyph unicode="&#xe917;" glyph-name="dl_ph" d="M700.587 704c18.481-0.477 33.28-15.571 33.28-34.123 0-0.004 0-0.007 0-0.011v0.001-445.44c0-18.851-15.282-34.133-34.133-34.133v0h-358.4c-18.481 0.477-33.28 15.571-33.28 34.123 0 0.004 0 0.007 0 0.011v-0.001 445.44c0 0.003 0 0.007 0 0.011 0 18.551 14.799 33.646 33.236 34.122l0.044 0.001h360.107zM701.44 755.2h-360.107c-47.128 0-85.333-38.205-85.333-85.333v0-445.44c0.957-46.388 38.788-83.627 85.316-83.627 0.006 0 0.012 0 0.018 0h360.106c47.128 0 85.333 38.205 85.333 85.333v0 443.733c-0.483 46.76-38.501 84.48-85.329 84.48-0.002 0-0.003 0-0.005 0v0zM452.267 328.533h136.533c14.138 0 25.6-11.462 25.6-25.6s-11.462-25.6-25.6-25.6h-136.533c-14.138 0-25.6 11.462-25.6 25.6s11.462 25.6 25.6 25.6z" />
<glyph unicode="&#xe918;" glyph-name="dl_mm" d="M350.72 540.16v53.76c0 89.072 72.208 161.28 161.28 161.28s161.28-72.208 161.28-161.28v0-53.76h7.68c0.001 0 0.003 0 0.004 0 46.828 0 84.846-37.72 85.329-84.434v-230.446c0-47.128-38.205-85.333-85.333-85.333v0h-337.92c-47.128 0-85.333 38.205-85.333 85.333v0 230.4c0.483 46.76 38.501 84.48 85.329 84.48 0.002 0 0.003 0 0.005 0v0zM396.8 540.16h230.4v53.76c0 63.623-51.577 115.2-115.2 115.2s-115.2-51.577-115.2-115.2v0zM304.64 455.68v-230.4c0-21.208 17.192-38.4 38.4-38.4v0h337.92c0.051 0 0.111 0 0.171 0 21.113 0 38.229 17.116 38.229 38.229 0 0 0 0 0 0v0 230.571c0 21.208-17.192 38.4-38.4 38.4v0h-337.92c-0.051 0-0.111 0-0.171 0-21.113 0-38.229-17.116-38.229-38.229 0 0 0 0 0 0v0z" />
<glyph unicode="&#xe948;" glyph-name="location2" d="M512 960c-176.732 0-320-143.268-320-320 0-320 320-704 320-704s320 384 320 704c0 176.732-143.27 320-320 320zM512 444c-108.248 0-196 87.752-196 196s87.752 196 196 196 196-87.752 196-196-87.752-196-196-196zM388 640c0 68.483 55.517 124 124 124s124-55.517 124-124c0-68.483-55.517-124-124-124s-124 55.517-124 124z" />
<glyph unicode="&#xe986;" glyph-name="search" d="M992.262 88.604l-242.552 206.294c-25.074 22.566-51.89 32.926-73.552 31.926 57.256 67.068 91.842 154.078 91.842 249.176 0 212.078-171.922 384-384 384-212.076 0-384-171.922-384-384s171.922-384 384-384c95.098 0 182.108 34.586 249.176 91.844-1-21.662 9.36-48.478 31.926-73.552l206.294-242.552c35.322-39.246 93.022-42.554 128.22-7.356s31.892 92.898-7.354 128.22zM384 320c-141.384 0-256 114.616-256 256s114.616 256 256 256 256-114.616 256-256-114.614-256-256-256z" />
<glyph unicode="&#xe9da;" glyph-name="heart" d="M755.188 896c-107.63 0-200.258-87.554-243.164-179-42.938 91.444-135.578 179-243.216 179-148.382 0-268.808-120.44-268.808-268.832 0-301.846 304.5-380.994 512.022-679.418 196.154 296.576 511.978 387.206 511.978 679.418 0 148.392-120.43 268.832-268.812 268.832z" />
<glyph unicode="&#xea0f;" glyph-name="cross" d="M1014.662 137.34c-0.004 0.004-0.008 0.008-0.012 0.010l-310.644 310.65 310.644 310.65c0.004 0.004 0.008 0.006 0.012 0.010 3.344 3.346 5.762 7.254 7.312 11.416 4.246 11.376 1.824 24.682-7.324 33.83l-146.746 146.746c-9.148 9.146-22.45 11.566-33.828 7.32-4.16-1.55-8.070-3.968-11.418-7.31 0-0.004-0.004-0.006-0.008-0.010l-310.648-310.652-310.648 310.65c-0.004 0.004-0.006 0.006-0.010 0.010-3.346 3.342-7.254 5.76-11.414 7.31-11.38 4.248-24.682 1.826-33.83-7.32l-146.748-146.748c-9.148-9.148-11.568-22.452-7.322-33.828 1.552-4.16 3.97-8.072 7.312-11.416 0.004-0.002 0.006-0.006 0.010-0.010l310.65-310.648-310.65-310.652c-0.002-0.004-0.006-0.006-0.008-0.010-3.342-3.346-5.76-7.254-7.314-11.414-4.248-11.376-1.826-24.682 7.322-33.83l146.748-146.746c9.15-9.148 22.452-11.568 33.83-7.322 4.16 1.552 8.070 3.97 11.416 7.312 0.002 0.004 0.006 0.006 0.010 0.010l310.648 310.65 310.648-310.65c0.004-0.002 0.008-0.006 0.012-0.008 3.348-3.344 7.254-5.762 11.414-7.314 11.378-4.246 24.684-1.826 33.828 7.322l146.746 146.748c9.148 9.148 11.57 22.454 7.324 33.83-1.552 4.16-3.97 8.068-7.314 11.414z" />
<glyph unicode="&#xea10;" glyph-name="checkmark" d="M864 832l-480-480-224 224-160-160 384-384 640 640z" />
<glyph unicode="&#xea11;" glyph-name="checkmark2" d="M397.434 42.304l-397.868 391.6 197.378 194.27 200.49-197.332 429.62 422.852 197.378-194.27-626.998-617.12zM107.912 433.904l289.524-284.962 518.656 510.482-89.036 87.632-429.62-422.852-200.49 197.334-89.034-87.634z" />
<glyph unicode="&#xea1c;" glyph-name="play3" d="M192 832l640-384-640-384z" />
</font>
</defs>
</svg>
